Watch movie | - Baywatch 2017 UNRATED BDRip x264-GECKOS | SD 6.2 135 1971: Beyond Borders (2017)
layout

ABCD 2 (2015) - 1CD - PreDVDRip

Torrent ID# 79A19816EEF199FD635A56502A3470E40D9BD946
NA
Added 2015-06-21 08:26:42   
Size 703.79 MiB in 4 files
Share
Seeders & Leechers 3791/6335
Category Video > Movies
ABCD 2 (2015) - 1CD - PreDVDRip
Description
screen:
 
http://imgmak.com/6T
 
http://imgmak.com/6a
 
http://imgmak.com/6p
 
http://imgmak.com/6R
 
http://imgmak.com/6x
 
http://imgmak.com/6z

::::

 15-06-19 17:44:25
Writing application : mkvmerge v7.4.0 ('Circles') 64bit built on Dec 12 2014 12:19:56
Writing library : libebml v1.3.0 + libmatroska v1.4.1

Video
ID : 1
Format : AVC
Format/Info : Advanced Video Codec
Format profile : [email protected]
Format settings, CABAC : Yes
Format settings, ReFrames : 4 frames
Codec ID : V_MPEG4/ISO/AVC
Duration : 2h 24mn
Bit rate : 611 Kbps
Width : 640 pixels
Height : 272 pixels
Display aspect ratio : 2.35:1
Frame rate mode : Constant
Frame rate : 25.000 fps
Color space : YUV
Chroma subsampling : 4:2:0
Bit depth : 8 bits
Scan type : Progressive
Bits/(Pixel*Frame) : 0.140
Stream size : 619 MiB (89%)
Title : Mafiaking
Language : Hindi
Default : Yes
Forced : No

Audio
ID : 2
Format : MPEG Audio
Format version : Version 2
Format profile : Layer 3
Mode : Joint stereo
Mode extension : MS Stereo
Codec ID : A_MPEG/L3
Codec ID/Hint : MP3
Duration : 2h 24mn
Bit rate mode : Constant
Bit rate : 64.0 Kbps
Channel(s) : 2 channels
Sampling rate : 24.0 KHz
Compression mode : Lossy
Stream size : 66.1 MiB (9%)
Title : Mafiaking
Writing library : LAME3.99r
Language : Hindi
Default : Yes
Forced : No